#TITLE:天马行空;
#SUBTITLE:;
#ARTIST:林子良;
#TITLETRANSLIT:;
#SUBTITLETRANSLIT:;
#ARTISTTRANSLIT:;
#CREDIT:;
#BANNER:п-logo.jpg;
#BACKGROUND:п.jpg;
#LYRICSPATH:;
#CDTITLE:Lan.png;
#MUSIC:п.mp3;
#OFFSET:0.000;
#SAMPLESTART:100.000;
#SAMPLELENGTH:12.000;
#SELECTABLE:YES;
#BPMS:0.000=75.150;
#STOPS:;
#BGCHANGES:;
// cache tags:
#FIRSTBEAT:20.000;
#LASTBEAT:195.750;
#SONGFILENAME:Songs/lan sky/п/п.sm;
#HASMUSIC:1;
#HASBANNER:1;
#MUSICLENGTH:159.572;
// end cache tags

//---------------dance-single - 标准----------------
#NOTES:
     dance-single:
     标准:
     Hard:
     7:
     0.525,0.629,0.551,0.113,0.580,466.000,88.000,18.000,0.000,16.000:


0000
0000
0000
0000
,
0000
0000
0000
0000
,
0000
0000
0000
0000
,
0000
0000
0000
0000
,
0000
0000
0000
0000
,
1000
0011
1110
0000
0001
1100
0111
0000
1000
0100
0010
0001
1000
0010
1101
0000
,
0001
0010
0100
1000
0010
0100
0001
1000
0100
0010
0001
1000
0010
0100
1011
0000
,
1000
0001
0010
0100
1000
0001
1000
0000
0001
0100
0010
1000
0001
0100
1010
0000
,
1011
0000
0111
0000
1000
0100
0011
0000
1000
0100
0010
0001
1000
0010
0001
0000
,
1100
0000
0100
1000
0011
1100
0011
1100
0011
0000
0001
0010
0101
1010
0101
1010
,
0000
0000
0110
1100
0011
0110
1001
0011
1100
0000
0000
0011
0000
1110
0000
0000
,
0111
0000
0001
0010
0100
1000
0001
1100
0000
0000
0010
0000
1000
0100
0010
0001
,
1100
0002
0000
0000
0103
2000
0000
0000
,
3001
0000
0100
0010
0110
0000
0001
1100
0001
1010
0001
1100
0001
0000
0100
0011
,
0000
0000
0100
0000
1000
0000
0001
0010
0100
1000
0010
0100
0011
1100
0011
1100
,
0000
0000
0001
0010
1000
0010
0001
1000
0000
0000
1000
0100
0010
0001
1000
0001
,
0010
2001
0010
0001
3010
0011
1010
0101
,
0010
0000
0100
0000
1000
0010
0001
0000
0010
0100
1000
0000
0001
0010
1000
0100
,
0000
0000
0000
0000
0001
0010
0100
1000
0001
0000
0010
0000
0001
0010
0100
1000
,
0000
0000
0000
0000
0100
0010
0001
0000
1000
0100
0001
0000
0010
0100
1000
0000
,
0001
0100
0010
1000
0001
1000
0001
1000
0001
0000
0011
0000
1000
0000
1100
0000
,
0100
0010
0001
0000
0010
0100
1000
0000
0010
0100
0001
1000
0000
0000
0000
0000
,
1000
0100
0010
0001
1000
0000
0002
0000
0000
0000
0010
0100
0000
0000
0010
0103
,
0000
0000
0001
0010
0100
1000
0001
0000
1000
0100
0010
0001
1000
0100
0010
0100
,
1001
0000
0110
0110
0110
0000
1100
0011
0000
1100
0000
0000
0000
0000
1100
0011
,
1000
0000
0100
1000
0100
1000
0100
1010
0000
0000
0001
0010
0001
0010
0001
0110
,
0000
0000
1000
0100
1000
0100
1000
0110
0001
0000
1100
0000
0000
0000
0000
0000
,
1000
0000
0100
0010
0001
0010
0100
1100
0000
0000
0010
0100
1000
0001
1000
0011
,
0000
0000
0001
0010
0100
1000
0001
2220
0000
0000
0000
0000
0000
0000
3330
0000
,
0111
0000
0010
1000
0001
1000
0010
0100
0001
1000
0100
0010
0001
0100
0010
1000
,
0001
0010
0100
1000
0010
0100
0001
0010
0100
0000
1100
0000
0000
0010
0001
0100
,
1000
0001
0100
0010
0001
0010
0100
1000
0001
0100
0010
0001
0000
1000
0001
1000
,
0001
0000
2000
0000
0110
0000
0000
0000
3001
0010
0100
1000
0001
1000
0001
0000
,
1000
0100
0010
0001
1000
0010
0100
0001
1000
0001
0100
0010
1000
0001
0100
0010
,
1000
0001
0100
0010
1000
0001
0010
0100
1000
0000
1100
0000
0001
0000
0101
0000
,
0000
0000
1000
0100
0010
0000
0001
0010
0100
1000
0010
0100
0001
0000
1000
0001
,
0000
0000
1100
0011
1010
0000
0001
0100
0000
1000
0100
0010
0001
1000
0100
0001
,
0000
0000
1100
0011
1100
0011
1100
0011
0000
0000
1000
0001
0100
0010
1000
0001
,
0000
0000
0100
0010
1000
0001
0100
0010
1011
0000
1101
1011
0000
1101
0000
0000
,
0000
0000
1000
0100
0010
0001
1000
0001
0000
0000
0100
0010
1000
0001
0010
0100
,
1000
0022
0000
0000
0033
2200
0000
0000
,
3310
0000
0100
0010
0000
0100
0000
0000
0001
0000
1000
0001
0000
1000
0000
0000
,
0100
0000
0010
0100
0000
0010
0000
0000
0001
1000
0010
0100
0001
1000
0010
0100
,
0010
0000
0100
0010
0000
0100
0000
0000
0001
0000
1000
0001
0000
1000
0000
0000
,
0100
0000
0010
0100
0000
0010
0000
0000
2100
0000
0010
0000
0001
0000
0010
3000
,
0102
0000
1000
0000
0100
0000
0010
0000
0100
0000
1000
0000
0100
0000
0010
0003
,
2100
0000
0010
0000
0001
0000
0010
0000
0100
0000
0010
0000
0001
0000
0010
3000
,
0102
0000
1000
0000
0100
0000
0010
0000
0100
0000
1000
0000
0100
0000
0010
0003
,
2200
0000
0000
0000
0000
0000
0000
0000
0000
0000
0000
0000
0000
0000
0000
3300
;
